#TITLE:One Step At A Time;
#SUBTITLE:;
#ARTIST:Jordin Sparks;
#TITLETRANSLIT:One Step At A Time;
#SUBTITLETRANSLIT:;
#ARTISTTRANSLIT:Jordin Sparks;
#CREDIT:;
#BANNER:;
#BACKGROUND:bg.jpg;
#LYRICSPATH:;
#CDTITLE:cdtitle.png;
#MUSIC:JORDIN SPARKS - ONE STEP AT A TIME.mp3;
#OFFSET:0.000;
#SAMPLESTART:96.420;
#SAMPLELENGTH:20.000;
#SELECTABLE:YES;
#BPMS:0.000=102.000;
#STOPS:;
#BGCHANGES:;
// cache tags:
#FIRSTBEAT:1.000;
#LASTBEAT:374.250;
#SONGFILENAME:Songs/Music V.I.P ^_^/One step At A time/onestep.sm;
#HASMUSIC:1;
#HASBANNER:0;
#MUSICLENGTH:139.658;
// end cache tags

//---------------dance-single - ----------------
#NOTES:
     dance-single:
     :
     Hard:
     9:
     0.978,1.000,1.000,0.186,0.734,658.000,237.000,26.000,0.000,97.000:
0000
1100
0011
1100
,
0210
0000
0010
1000
0001
0000
0000
0000
1310
0000
0012
0000
0000
0000
1000
0000
,
1103
0000
0100
0010
2000
0000
0000
0000
0001
0000
3010
0000
0001
0000
0010
0000
,
0111
0000
0100
0010
1000
0000
0010
0000
1100
0000
0010
0000
1001
0000
0010
0000
,
0110
0000
0001
0010
1001
0000
0100
0000
1100
0000
0010
0000
1100
0001
0010
0001
,
1110
0000
0010
0100
1001
0000
0100
0000
0101
0000
1000
0000
1100
0000
0010
0000
,
1001
0000
0001
0010
0101
0000
0010
0000
1100
0000
0100
0000
1010
0000
0001
0000
,
0101
0000
0100
0001
1010
0000
0010
0000
0101
0000
1000
0000
1100
0000
0010
0000
,
0101
0000
0010
0001
1010
0000
0100
0000
1100
0000
0010
0000
1010
0100
0001
0010
,
1101
0000
0001
0010
1100
0000
0001
0000
0110
0000
1000
0000
1010
0000
1000
0000
,
1100
0000
0010
0010
1001
0000
0010
0000
1100
0000
0010
0000
1100
0000
0010
0000
,
0211
0001
0001
0001
0011
0001
0001
0001
0011
0001
0001
0001
0011
0001
0001
0001
,
0011
0001
0001
0001
0011
0001
0001
0001
0011
0001
0001
0001
0011
0001
0001
0001
,
1311
1000
0010
0100
1010
0001
0100
0010
1100
0001
0010
0001
1010
0000
0101
0000
,
1110
0000
0001
0010
0101
0001
0100
0100
1010
0001
0010
1100
0011
0000
1100
0000
,
0111
0000
1000
0001
1010
0000
0010
0000
0101
0000
0100
0000
1100
0000
0001
0000
,
1020
0000
1000
0100
1001
0000
0100
0001
1130
0000
0100
0000
1001
0100
0010
0100
,
1010
0001
0101
1000
0011
0001
0100
0010
1101
1000
0100
0010
1100
0000
0010
0000
,
1010
0000
1010
1000
0011
0010
0001
0010
0110
0100
1000
0100
1100
0000
0010
0000
,
1012
1000
1000
1000
1010
1000
1000
1000
1010
1000
1000
1000
1010
1000
1000
1000
,
1010
1000
1000
1000
1010
1000
1000
1000
1010
1000
1000
1000
1010
1000
1000
1000
,
1113
0000
0100
0010
0101
0000
1000
0000
1100
0000
0100
0000
1001
0000
0100
0000
,
1100
0000
0010
0001
1010
0000
0100
0000
1100
0000
0010
0000
1001
0000
0100
0000
,
1010
0000
1000
0001
1100
0000
0010
0000
1001
0000
0001
0000
0101
0000
0001
0000
,
0110
0000
1000
0010
0101
0000
0001
0000
1010
0000
0100
0000
1001
0001
0010
0100
,
1010
0000
1000
0001
1010
0000
0001
0000
0011
0000
0100
0000
0110
0000
0001
0000
,
1010
0000
0100
0010
1001
0000
0001
0000
0101
0000
0100
0000
1100
0010
0100
1000
,
0211
0010
0010
0010
0011
0010
0010
0010
0011
0010
0010
0010
0011
0010
0010
0010
,
0011
0010
0010
0010
0011
0010
0010
0010
0011
0010
0010
0010
0011
0010
0010
0010
,
1311
0000
0100
0010
2001
0000
0001
0000
0101
0000
3200
0000
1000
0000
0010
0000
,
1301
0000
1000
0001
1020
0000
0100
0000
1001
0000
0031
0000
0101
0000
0010
0000
,
2100
0000
0001
0100
3012
0000
1000
0000
1100
0000
0203
0000
1010
0000
0001
0000
,
1310
0000
1000
0100
1002
0000
0010
0000
1010
0000
0103
0000
1001
0100
0010
0100
,
2002
0000
0000
0000
0000
0000
0000
0000
0010
0000
0000
0000
0100
0000
0000
0003
0002
0000
0000
0000
0000
0000
0000
0000
3000
0000
0000
0000
0000
0000
0000
0000
2000
0000
0000
0000
0000
0000
0000
0000
0103
0000
0000
0000
0000
0000
0000
0000
0002
0000
0000
0000
0000
0000
0000
0000
3000
0000
0000
0000
0000
0000
0000
0000
,
0200
0000
0013
1000
0020
0000
0300
0000
1200
0000
0031
0000
1011
0000
0301
0000
,
0111
0000
0010
0100
1001
0000
0100
0000
0101
0000
0010
0000
1100
0000
0010
0000
,
1001
0000
0001
0010
0101
0000
0010
0000
1010
0000
0100
0000
0011
1000
0100
0010
,
0101
0000
0100
0001
1100
0000
0001
0000
1001
0000
0100
0000
1100
0000
0100
0000
,
1010
0000
0001
0010
1100
0000
0001
0000
1010
0000
1000
0000
1100
0000
0010
0000
,
0121
0100
0100
0100
0101
0100
0100
0100
0101
0100
0100
0100
0101
0100
0100
0100
,
0101
0100
0100
0100
0101
0100
0100
0100
0101
0100
0100
0100
0101
0100
0100
0100
,
1131
0001
0100
0010
1101
1000
0010
0100
1011
1000
0100
0010
1101
0000
1010
0000
,
1101
0001
0010
0001
1011
1000
0101
0100
1011
1000
0101
0100
0011
0000
1100
0000
,
1011
0000
0100
0010
1001
0000
0001
0000
0101
0000
0001
0000
0101
0000
0010
0000
,
1120
0000
1000
0100
1001
0000
0100
0001
1100
0000
0001
0030
1010
0001
0100
0010
,
1001
0001
0110
0010
1101
0001
1010
0100
0111
1000
0100
1000
1101
0000
0001
0000
,
1011
0100
0010
0001
0111
0100
1010
1000
0111
0100
1000
0010
1100
0001
0010
0001
,
1102
1000
1000
1000
1100
1000
1000
1000
1100
1000
1000
1000
1100
1000
1000
1000
,
1100
1000
1000
1000
1100
1000
1000
1000
1100
1000
1000
1000
1100
1000
1000
1000
,
1113
0000
0100
0010
1001
0000
0100
0000
1010
0000
1000
0000
1100
0000
0010
0000
,
0101
0000
0001
0010
1001
0000
0100
0000
1100
0000
0100
0000
1010
0100
0001
0010
,
1100
0000
0001
1000
0101
0000
1000
0000
0101
0000
1000
0000
1100
0000
0010
0000
,
0011
0000
0100
1000
0101
0000
1000
0000
0101
0000
0001
0000
1001
0010
0100
0010
,
1100
0000
1000
0100
1010
0000
1000
0000
1100
0000
0010
0000
1010
0000
0100
0000
,
1100
0000
0010
0001
1010
0000
0001
0000
0110
0000
0001
0000
1011
0100
0001
0100
,
2011
0010
0010
0010
0011
0010
0010
0010
0011
0010
0010
0010
0011
0010
0010
0010
,
0011
0010
0010
0010
0011
0010
0010
0010
0011
0010
0010
0010
0011
0010
0010
0010
,
3111
1100
0011
1100
,
0011
1100
0011
1100
,
0000
0000
0000
0000
,
0000
0000
0000
0000
,
0000
0000
0000
0000
,
0000
0000
0000
0000
,
0000
0000
0000
0000
,
0000
0000
0000
0000
,
0000
0000
0000
0000
,
0000
0000
0000
0000
,
0000
0000
0000
0000
,
0000
0000
0000
0000
,
0000
0000
0000
0000
,
0000
0000
0000
0000
,
0000
0000
0000
0000
,
0000
0000
0000
0000
,
0000
0000
0000
0000
,
0000
0000
0000
0000
,
0000
0000
0000
0000
,
0000
0000
0000
0000
,
0000
0000
0000
0000
,
0000
0000
0000
0000
,
0000
0000
0000
0000
,
0000
0000
0000
0000
,
0000
0000
0000
0000
,
0000
0000
0000
0000
,
0000
0000
0000
0000
,
0000
0000
0000
0000
,
0000
0000
0000
0000
,
0000
0000
0000
0000
,
0000
0000
0000
0000
,
0000
0000
0000
0000
,
0000
0000
0000
0000
,
0000
0000
0000
0000
,
0000
0000
0000
0000
,
0000
0000
0000
0000
,
0000
0000
0000
0000
0000
0000
0000
0000
0000
1001
0000
0000
0000
0000
0000
0000
;
